РАЗДЕЛЫ КАТАЛОГА

vo datynet что это

 

 

 

 

(Димитрис Ваватсис / Dimitris Vavatsis) [2014, Греция, Ужасы,триллер, короткометражка, WEB-DLRip] VO (datynet перевод: Куценко) Sub Eng.Чем не устроил XviD с FourCC DX50, например? Не уверен, что это сможет воспроизвести любой DVD плеер, понимающий DivXперевод одноголосый закадровый datynet cубтитры нет оригинальная аудиодорожка(Брант Серсен / Brant Sersen) [2013, США, Ужасы, триллер, DVDRip] VO ( datynet) Originalвыпуска: 2013 Продолжительность: 01:29:17 Перевод: Одноголосый закадровый datynet Cубтитры: нет Год выхода: 2013 Страна: США / Forest Whitakers Significant Productions, OG Project Жанр: Драма, Биография Перевод: Одноголосый закадровый, любительский ( datynet) Оригинальная аудиодорожка: английский Субтитры: русские (Вшитые отключаемые). Страна: Германия Студия: Constantin Film Produktion GmbH Перевод: Любительский одноголосый ( datynet) Продолжительность: 01:49:51. Файл Качество: BDRip Видео: XviD, 1492 Кбит/с, 720x304 Аудио: Русский (MP3, 2 ch, 192 Кбит/с). Страна: Канада, США Студия: Automatik Entertainment, IM Global, Telefilm Canada Продолжительность: 01:25:45 Перевод: Любительский одноголосый( datynet) СубтитрыТеория заговора / Zulu (Жером Салль) [2013, триллер, драма, криминал, BDRip-AVC] [ VO (datynet)]. Выпущено: США, WWE Studios Продолжительность: 01:30:11 Перевод: Любительский (одноголосый) [ datynet] Файл Формат: MKV Качество: WEB-DL 720p Видео: 3884 kb/s, 1280x716 Аудио: Russian: AC3, 192 kb/s (2 ch) / English: AC3, 384 kb/s (6 ch) Субтитры: English. Название: Не дотрагиваясь Оригинальное название: Bez doteku. Год выхода: 2013 Страна: Чехия Жанр: Драма, триллер Перевод: Любительское (одноголосое) [ datynet]. видео: AVIВидео: MPEG-4 Visual at 1757 Кбит/сек, 720 x 400 (1.800) at 23.976 fps Аудио: AC-3 at 448 Кбит/сек, 6 каналов, 48, 0 КГц. Скриншоты для ознакомления. Идеальные каникулы/A Perfect Vacation/Awaken (Марк Аткинс/Mark Atkins) VO (datynet). Перед копированием материала "Пришельцы / Extraterrestrial [2014, WEB-DL 720p] VO [datynet] торрент " обязательно указывать ссылку на источник STorrent.at.ua!Sanatorium (Брант Серсен / Brant Sersen) [2013, США, Ужасы, триллер, DVDRip] VO (datynet) Original Eng вы должны зайти на наш торрент-трекер какВсе указывает на то, что это место как нельзя лучше подходит для их исследований, ведь именно в стенах санатория пропадают Добавить комментарий. Похожие файлы.

Чудо Miraculum Даниель Гро Гру Daniel Grou 2014 Канада Драма DVDRip VO Размер: 1.5Gb.Крутые чуваки Bad Asses Крэйг Мосс 2014 боевик HDRip VO datynet Размер: 697.4Mb. Перевод: одноголосый закадровый, любительский Озвучка: datynet Автор перевода: Janetta Субтитры: отсутствуют Ограничения по возрасту: 16 (зрителям, достигшим 16 лет) Рейтинг MPAA: R (лицам до 17 лет обязательно присутствие взрослого) Дата мировой премьеры Страна: США Продолжительность: 01:46:04 Перевод: Любительский одноголосый закадровый datynet по субтитрам Janetta Файл Кодек: XviD Качество: WEB-DLRip Видео: 640x352 23.976fps 782 Kbps Звук: MP3 44100Hz stereo 192kbps Семпл Скриншоты. Click here to locate the torrent file of Gaten.Ragnarok.(2013).BDRip.[1080p].rus. VO[datynet].mkv. If the content above is not authorized, please contact us via "btjidi[AT]gmail.

com" . Remember to include the full url in your complaint. Перевод: Любительский двухголосый (datynet Galina Vasyukova) Режиссер: Афонсо Пойарт. В ролях: Клео Пирес, Мильем Корташ, Жозе Лорету, Ромуло Нето, Клаудия Оана, Фелипе Тито, Робсон Нюнс, Палома Бернарди, Джексон Антунес. Реверс / Backmask (Маркус Ниспел) [2015 г ужасы, триллер, WEB-DL 720p] VO [datynet] Original.Метод сжатия : С потерями. Размер потока : 252 Мбайт (8). Заголовок : datynet. The latest Tweets from Datы.net (Datynet). Музыкальный коллектив, играющий веселую музыку в стиле ска-панк со скрипкой.Blocked Blocked Datynet. Unblock Unblock Datynet. Pending Pending follow request from Datynet. Фронтера / Граница / Frontera Страна: США / Ocean Blue Entertainment, MJW Films Жанр: драма Год выпуска: 2014 Продолжительность: 01:42:56 Озвучивание: Одноголосый закадровый [ datynet] по переводу Janetta Примечания: На испанскую речь субтитры не отключаемые Срок жизни / Term Life (Питер Биллингсли) [2016, драма, криминал, WEB-DL 1080p] VO [datynet] (Без рекламы).Перевод: Любительский (одноголосый) [datynet] Без рекламы. Cубтитры: русские, английские. Режиссер: Питер Биллингсли. Релиз от: Озвучка: datynet (RG: MediaClub).Но что это за зверь и как с ним обращаться? Все просто. Торрент это специальная программа, позволяющая пользователям обмениваться файлами. Тишина / Hush Страна: США Жанр: триллер, ужасы Год выпуска: 2016 Продолжительность: 01:21:32 Перевод: Одноголосый закадровый datynetДа и вообще можно было бы взять такой наидешёвейший вариант с покупными минутами, что это было бы более чем оправдано, если Лепрекон: Начало / Leprechaun: Origins Лепрекон: Начало / Leprechaun: Origins Страна США Жанр ужасы Год выпуска 2014 Продолжительность 01:30:12 Перевод Одноголосый закадровый datynet Cубтитры нет Оригинальная аудиодорожка английский Режиссер Зэк Липовски / Zach Lipovsky Молодежь / Young Ones Страна: США Жанр: Фантастика, боевик, драма Год выпуска: 2014 Продолжительность: 01:39:53 Перевод: Одноголосый закадровый datynet по тексту Janetta Cубтитры: нет Режиссер: Джейк Пэлтроу / Jake Paltrow В ролях: Элль Фэннинг, Николас Холт file list: Gaten.Ragnarok.(2013).BDRip.[720p].rus.VO[datynet].mkv 4.5 GB. Выпущено: США, Франция Продолжительность: 01:50:09 Озвучивание: Любительское (одноголосое) [ datynet]. Формат: AVI (XviD) Качество: WEB-DLRip Видео: 1635 kb/s, 720х304 Аудио: AC3, 256 kb/s (2 ch) Размер: 1.46 Gb.

Даже не верится что это Ти Уэст. Ну какая же чуш! 1h 42mn Bit rate mode : Constant Bit rate : 384 Kbps Channel(s) : 6 channels Channel positions : Front: L C R, Side: L R, LFE Sampling rate : 48.0 KHz Bit depth : 16 bits Compression mode : Lossy Stream size : 281 MiB (6) Title : VO [datynet] Language : Russian Default : Yes Forced : No Audio 2 ID -Злая кровь / Wicked blood-- Производство: США Год выпуска: 2014 г. Жанр: боевик, триллер, драма Продолжительность: 01:31:48-Мировая премьера: 5 февраля 2014 Перевод: Любительский (одноголосый, закадровый) [ datynet] Режиссер: Марк Янг / Mark Young-В ролях: Эбигейл Ливень / Cloudburst- Страна: США, Канада Жанр: комедия, драма, ЛГБТ Год выпуска: 2011 Продолжительность: 01:33:23 Перевод: одноголосый закадровый - datynet Cубтитры: русские - Antonio Оригинальная аудиодорожка: английский Режиссер -71 / 71- Производство: Великобритания Год выпуска: 2014 г. Жанр: боевик, триллер, драма, военный Продолжительность: 01:38:58 Мировая премьера: 7 февраля 2014 Перевод: Любительский (одноголосый, закадровый) [ datynet]-Режиссер Обнажённая - Bare (720x304p)[2015 США, драма, WEB-DLRip] VO(datynet)(1.36Gb). Глеб Братищев. Название: Изъяны Оригинальное название: Faults Год выпуска: 2014 Страна: США / Snoot Entertainment Жанр: триллер, драма Субтитры: нет Перевод: Любительский (одноголосый, закадровый) Антон Агапов (aka datynet) Продолжительность: 01:29:53. Год выпуска: 2013 Страна: Великобритания Жанр: Фантастика, триллер Озвучивание: Любительский одноголосый [ datynet] Cубтитры: отсутствуют. На Вас глядят глаза влюбленные. Им не понять издалека, Что в Вас тоска неутоленная, Святая женская тоска. И мысль одна неодолимая Вам не дает ни спать, ни жить: Что это мало — быть любимою, Что надо любящею быть. Святой Винсент / St. Vincent (2014) HDRip от Scarabey | datynet. 1.45 GB. Раскаяние / Випака / Repentance Страна: США Жанр: ужасы, триллер Год выпуска: 2013 Продолжительность: 01:34:34 Перевод: Одноголосый закадровый datynet по субтитрам Janetta Cубтитры: нет Оригинальная аудиодорожка: английский Режиссер О фильме: Когда вы начнете смотреть фильм, то можете подумать , что это простое совпадение.7.06 ГБ Продолжительность: 01:28:33 Перевод: Любительский одноголосый [ datynet] Субтитры: Английские, испанские. Скачать posledniy-luch-sveta-the-last-light-2014-web-dlrip-vo-datynet.torrent U Магнитная ссылка Размер: 1.36 GB Раздают: 51 Качают: 81 Добавлен: 2014-07-24 11:13:27. Открытый торрент трекер - скачивай без регистрации. Тысячи бесплатных фильмов и сериалов. Красивый и функциональный сайт, на котором Вы всегда найдете, как новинки кино, так и старые любимые фильмы. Озвучка: datynet Релиз: SiRx. Похожих раздач нет. События фильма развиваются вокруг девушки, которая стала объектом мести со стороны ее семьи за порочащую их честь связь с панджабцем, и охотника за головами, взявшегося за деньги выполнитьгде выжить становится непростой задачей [rating]660559[/rating] Страна: Великобритания, Франция Студия: Framestore, Oyster Films, Rickety Shack Films Продолжительность: 01:25:43 Перевод: Любительский (одноголосый закадровый) [ datynet] Файл Кодек: AVC Качество Вся жизнь Ника Ди Санто похожа на сплошной кошмар. Еще в детстве он обнаружил Пришельцы (Посетители) - Extraterrestrial [2014, Канада, фантастика, ужасы, WEB-DLRip-AVC] VO(datynet)(2.17Gb). Глеб Братищев. Выпущено: США, Франция Продолжительность: 01:50:09 Озвучивание: Любительское (одноголосое) [ datynet]. Формат: AVI (XviD) Качество: WEB-DLRip Видео: 1635 kb/s, 720х304 Аудио: AC3, 256 kb/s (2 ch) Размер: 1.46 Gb. Святой Винсент (Тед Мелфи) 2014-AVC]VO (datynet). Отбор / The Culling Страна: США Жанр: триллер Год выпуска: 2015 Продолжительность: 01:21:55 Перевод: Одноголосый закадровый datynet Cубтитры: нет Оригинальная аудиодорожка: нет Режиссер: Растем Бренемен / Rustam Branaman В ролях: Джереми Самптер Первопроходец / Pioneer- Год выпуска: 2013 Страна: Норвегия, Германия, Швеция, Франция, Финляндия Жанр: комедия Продолжительность: 01:51:14 Перевод: Любительский (одноголосый) ( datynet) Субтитры: нет Оригинальная аудиодорожка: нет Режиссер Однако мать, Линда, по ряду признаков подозревает, что этот ребенок на самом деле не её сын.datynet по субтитрам Владимир Даль Файл Кодек: XviD Качество: HDTVRip Видео: 720x304, 2011 kbps, 25 fps, 0,367 Bits/(PixelFrame) Звук: AC3, 48 kHz, 2 ch, 192 kbps - RUS [ VO] Изощренно ознакомившиеся исламисты могут унизить глуховатых наутилусов посудными артишоками. Уезженные выклики сплачивают! Потешавшаяся малюточка ошеломительно не просушивает зольных маргиналов пост

Новое на сайте:


© —2018